---.:::FilmetJeux:::.--- Index du Forum
---.:::FilmetJeux:::.---

 
---.:::FilmetJeux:::.--- Index du ForumFAQRechercherS’enregistrerConnexion

:: Arthur et la vengeance de Maltazard [FRENCH BLURAY 720p] ::

 
Poster un nouveau sujet   Répondre au sujet    ---.:::FilmetJeux:::.--- Index du Forum -> Films -> Films HD
Sujet précédent :: Sujet suivant  
Auteur Message
Jordan026
Administrateur
Administrateur

Hors ligne

Inscrit le: 18 Mai 2010
Messages: 120
Localisation: Parc Des Princes
Masculin

MessagePosté le: Lun 24 Mai - 10:12 (2010)    Sujet du message: Arthur et la vengeance de Maltazard [FRENCH BLURAY 720p] Répondre en citant

Arthur et la vengeance de Maltazard [FRENCH BLURAY 720p]





Origine du film : français
Réalisateur : Luc Besson
Acteurs : Rohff, Freddie Highmore, Penny Balfour
Genre : Animation
Durée : 1h34
Date de sortie BLURAY : 31 mars 2010
Année de production : 2009




Arthur est au comble de l'excitation : c'est aujourd'hui la fin du dixième cycle de la Lune, et il va enfin pouvoir regagner le monde des Minimoys pour y retrouver Sélénia. Dans le village, tout est prêt pour l'accueillir : un grand banquet a été organisé en son honneur, et la petite princesse a passé sa robe en pétales de rose... C'est sans compter le père d'Arthur, qui choisit précisément ce jour tant attendu pour quitter plus tôt que prévu la maison de sa grand-mère. Au moment du départ, une araignée dépose dans les mains du jeune garçon un grain de riz sur lequel est gravé un message de détresse. Pas de doute, Sélénia est en danger, et Arthur n'a plus qu'une idée en tête : voler à son secours ! Quitte à employer un passage de fortune, tomber tête la première dans le bar de Max, se heurter aux troupes de Kröb, le nouveau tyran des Sept Terres, secourir Bétamèche, combattre des rats, des grenouilles, des araignées velues... et découvrir, une fois arrivé au village des Mimimoys, qu'aucun message de secours ne lui a été envoyé ! Mais qui donc a bien pu piéger ainsi notre jeune héros ?




Hébergeur : Megaupload
Qualité : 720p
Format : MKV
Langue : Francais 

Sous-titre : Aucun 

Découper avec : Aucun 

Nombre de fichiers et tailles : 1 x 3.79 Mo
Taille totale : 3,79 Mo 


INFO AUDIO VIDEO 


H:\Arthur.And.The.Revenge.Of.Maltazard.2009.FRENCH.720p.BluRay.x264.mkv
General
Complete name : H:\Arthur.And.The.Revenge.Of.Maltazard.2009.FRENCH.720p.BluRay.x264.mkv
Format : Matroska
File size : 3.79 GiB
Duration : 1h 33mn
Overall bit rate : 5 795 Kbps
Encoded date : UTC 2010-03-12 23:43:27
Writing application : mkvmerge v3.2.0 ('Beginnings') built on Feb 12 2010 11:41:37
Writing library : libebml v0.7.7 + libmatroska v0.8.1
Video #1
ID : 1
Format : AVC
Format/Info : Advanced Video Codec
Format profile : High@L4.1
Format settings, CABAC : Yes
Format settings, ReFrames : 5 frames
Muxing mode : Container profile=Unknown@4.1
Codec ID : V_MPEG4/ISO/AVC
Duration : 1h 33mn
Bit rate : 5 039 Kbps
Nominal bit rate : 5 169 Kbps
Width : 1 280 pixels
Height : 544 pixels
Display aspect ratio : 2.35:1
Frame rate : 24.000 fps
Resolution : 24 bits
Colorimetry : 4:2:0
Scan type : Progressive
Bits/(Pixel*Frame) : 0.302
Stream size : 3.30 GiB (87%)
Title : Arthur.And.The.Revenge.Of.Maltazard.2009.FRENCH.720p.BluRay.x264-SSL.mkv
Writing library : x264 core 88 r1462 7fcffde
Encoding settings : cabac=1 / ref=5 / deblock=1:-1:-1 / analyse=0x3:0x113 / me=umh / subme=7 / psy=1 / psy_rd=1.00:0.00 / mixed_ref=1 / me_range=16 / chroma_me=1 / trellis=2 / 8x8dct=1 / cqm=0 / deadzone=21,11 / fast_pskip=1 / chroma_qp_offset=-2 / threads=6 / sliced_threads=0 / nr=0 / decimate=1 / mbaff=0 / constrained_intra=0 / bframes=3 / b_pyramid=2 / b_adapt=2 / b_bias=0 / direct=3 / wpredb=1 / wpredp=2 / keyint=250 / keyint_min=25 / scenecut=40 / intra_refresh=0 / rc_lookahead=40 / rc=2pass / mbtree=1 / bitrate=5169 / ratetol=1.0 / qcomp=0.60 / qpmin=10 / qpmax=51 / qpstep=4 / cplxblur=20.0 / qblur=0.5 / vbv_maxrate=50000 / vbv_bufsize=50000 / ip_ratio=1.40 / aq=1:1.00
Language : English
Audio #2
ID : 2
Format : AC-3
Format/Info : Audio Coding 3
Codec ID : A_AC3
Duration : 1h 33mn
Bit rate mode : Constant
Bit rate : 640 Kbps
Channel(s) : 6 channels
Channel positions : Front: L C R, Surround: L R, LFE
Sampling rate : 48.0 KHz
Stream size : 429 MiB (11%)




{{{Vous devez répondre à ce sujet pour voir la partie cachée}}}
 


Revenir en haut
Visiter le site web du posteur
Publicité






MessagePosté le: Lun 24 Mai - 10:12 (2010)    Sujet du message: Publicité

PublicitéSupprimer les publicités ?
Revenir en haut
Montrer les messages depuis:   
Poster un nouveau sujet   Répondre au sujet    ---.:::FilmetJeux:::.--- Index du Forum -> Films -> Films HD Toutes les heures sont au format GMT + 2 Heures
Page 1 sur 1

 
Sauter vers:  

Index | Panneau d’administration | Creer un forum | Forum gratuit d’entraide | Annuaire des forums gratuits | Signaler une violation | Conditions générales d'utilisation
onyx © theme by larme d'ange 2006
Powered by phpBB © 2001, 2005 phpBB Group
Traduction par : phpBB-fr.com